Thanks Thanks:  0
Ergebnis 1 bis 3 von 3
  1. #1
    Anfänger
    Registriert seit
    23.11.2015
    Beiträge
    11
    Total Downloaded
    0
    Total Downloaded
    0
    ReceiverDankeAktivitäten
    Box 1:
    VU+ Solo 4K
     
     
    Box 2:
    VU+ Duo2
     
     

    Question VU+ Solo 4K Automatische Sprachwahl funktioniert nicht

    Hallo,
    ich habe in den Einstellungen für die "Automatische Sprachauswahl" Deutsch als erste Sprache eingestellt.
    Beim Abspielen von Filmen scheint diese Einstellung aber ignoriert zu werden.
    Ist das ein Fehler oder habe ich da nur eine falsche Erwartungshaltung?

    Gruß
    Urmel
    Miniaturansichten angehängter Grafiken Miniaturansichten angehängter Grafiken VU+ Solo 4K Automatische Sprachwahl funktioniert nicht-audio1.jpg   VU+ Solo 4K Automatische Sprachwahl funktioniert nicht-audio2.jpg  


    •   Alt Advertising

       

  2. #2
    Avatar von Captain
    Registriert seit
    03.04.2013
    Beiträge
    11.646
    Total Downloaded
    162,35 MB
    Total Downloaded
    162,35 MB
    ReceiverDankeAktivitäten
    hangt an media file ob der gst player die sprache da richtig erkennen kann, normal klappt es

    genau weiss das bei uns der beta besser der kennt sich da gut aus, er ist aber aktuell ime stress wenig zeit, kann also dauern bis er das hier sieht


    openATV we are open Source

    Boykott GPL violator

  3. #3
    Anfänger
    Registriert seit
    23.11.2015
    Beiträge
    11
    Themenstarter
    Total Downloaded
    0
    Total Downloaded
    0
    ReceiverDankeAktivitäten
    Box 1:
    VU+ Solo 4K
     
     
    Box 2:
    VU+ Duo2
     
     
    Hier noch die detaillierten Infos zum Film, demnach sollte auch eigentlich der deutsche Ton die erste Spur sein.
    Code:
    General
    Unique ID                                : 173911576745707754878286899977609241494 (0x82D626BDC2B16C8993D99DED0AAF6396)
    Complete name                            : Z:\Serien\aaa.mkv
    Format                                   : Matroska
    Format version                           : Version 2
    File size                                : 2.22 GiB
    Duration                                 : 1h 1mn
    Overall bit rate                         : 5 167 Kbps
    Encoded date                             : UTC 2012-03-29 13:13:20
    Writing application                      : mkvmerge v5.4.0 ('Piper') built on Mar 10 2012 13:34:39
    Writing library                          : libebml v1.2.3 + libmatroska v1.3.0
    
    Video
    ID                                       : 1
    Format                                   : AVC
    Format/Info                              : Advanced Video Codec
    Format profile                           : High@L4.1
    Format settings, CABAC                   : Yes
    Format settings, ReFrames                : 5 frames
    Codec ID                                 : V_MPEG4/ISO/AVC
    Duration                                 : 1h 1mn
    Bit rate                                 : 2 915 Kbps
    Width                                    : 1 280 pixels
    Height                                   : 720 pixels
    Display aspect ratio                     : 16:9
    Frame rate mode                          : Constant
    Frame rate                               : 23.976 fps
    Color space                              : YUV
    Chroma subsampling                       : 4:2:0
    Bit depth                                : 8 bits
    Scan type                                : Progressive
    Bits/(Pixel*Frame)                       : 0.132
    Stream size                              : 1.25 GiB (56%)
    Writing library                          : x264 core 122 r2184 5c85e0a
    Encoding settings                        : cabac=1 / ref=5 / deblock=1:-3:-3 / analyse=0x3:0x113 / me=umh / subme=7 / psy=1 / psy_rd=1.00:0.15 / mixed_ref=1 / me_range=16 / chroma_me=1 / trellis=1 / 8x8dct=1 / cqm=0 / deadzone=21,11 / fast_pskip=0 / chroma_qp_offset=-3 / threads=12 / sliced_threads=0 / nr=0 / decimate=1 / interlaced=0 / bluray_compat=0 / constrained_intra=0 / bframes=3 / b_pyramid=2 / b_adapt=1 / b_bias=0 / direct=3 / weightb=1 / open_gop=0 / weightp=2 / keyint=240 / keyint_min=23 / scenecut=40 / intra_refresh=0 / rc_lookahead=40 / rc=crf / mbtree=1 / crf=20.0 / qcomp=0.60 / qpmin=10 / qpmax=51 / qpstep=4 / ip_ratio=1.40 / aq=1:1.00
    Default                                  : Yes
    Forced                                   : No
    
    Audio #1
    ID                                       : 2
    Format                                   : DTS
    Format/Info                              : Digital Theater Systems
    Mode                                     : 16
    Format settings, Endianness              : Big
    Codec ID                                 : A_DTS
    Duration                                 : 1h 1mn
    Bit rate mode                            : Constant
    Bit rate                                 : 1 509 Kbps
    Channel(s)                               : 6 channels
    Channel positions                        : Front: L C R, Side: L R, LFE
    Sampling rate                            : 48.0 KHz
    Bit depth                                : 24 bits
    Compression mode                         : Lossy
    Stream size                              : 665 MiB (29%)
    Language                                 : German
    Default                                  : Yes
    Forced                                   : No
    
    Audio #2
    ID                                       : 3
    Format                                   : AC-3
    Format/Info                              : Audio Coding 3
    Mode extension                           : CM (complete main)
    Format settings, Endianness              : Big
    Codec ID                                 : A_AC3
    Duration                                 : 1h 1mn
    Bit rate mode                            : Constant
    Bit rate                                 : 640 Kbps
    Channel(s)                               : 6 channels
    Channel positions                        : Front: L C R, Side: L R, LFE
    Sampling rate                            : 48.0 KHz
    Compression mode                         : Lossy
    Stream size                              : 282 MiB (12%)
    Language                                 : English
    Default                                  : No
    Forced                                   : No
    
    Text
    ID                                       : 4
    Format                                   : UTF-8
    Codec ID                                 : S_TEXT/UTF8
    Codec ID/Info                            : UTF-8 Plain Text
    Language                                 : German
    Default                                  : Yes
    Forced                                   : No


Stichworte

Lesezeichen

Berechtigungen

  • Neue Themen erstellen: Nein
  • Themen beantworten: Nein
  • Anhänge hochladen: Nein
  • Beiträge bearbeiten: Nein
  •  
Diese Website benutzt Cookies
Wir benutzen Cookies um Sitzungsinformationen zu speichern. Dies erleichtert es uns z.B. Dich an Deine Login zu erinnern, Einstellungen der Webseite zu speichern, Inhalte und Werbung zu personalisieren, Social Media Funktionen anzubieten und unser Datenaufkommen zu analysieren. Wir teilen diese Informationen ebenfalls mit unseren Social Media-, Werbe- und Analysepartnern.
     
Alle Zeitangaben in WEZ +1. Es ist jetzt 18:55 Uhr.
Powered by vBulletin® Version 4.2.5 (Deutsch)
Copyright ©2018 Adduco Digital e.K. und vBulletin Solutions, Inc. Alle Rechte vorbehalten.
Resources saved on this page: MySQL 11,11%
Parts of this site powered by vBulletin Mods & Addons from DragonByte Technologies Ltd. (Details)
vBulletin Skin By: PurevB.com