Thanks Thanks:  0
Ergebnis 1 bis 3 von 3
  1. #1
    Anfänger
    Registriert seit
    08.07.2018
    Beiträge
    6
    Total Downloaded
    0
    Total Downloaded
    0
    ReceiverDankeAktivitäten
    Box 1:
    HD51
     
     

    Benchmark your receiver cpu with ffmpeg

    Benchmark with ffmpeg

    Could you help me , i want to buy new receiver and i want to test the cpu power. Me method is to install and use ffmpeg
    So i make a litthe bash who

    know your channel in use
    launch an ffmpeg to tmp outfile of 10 secondes ( take 30 secondes in depend of your cpu )

    go in ssh in root user and you launch command :

    opkg install ffmpeg
    (install ffmeg binary )

    opkg install curl
    (for the download of the script )

    curl https://transfer.sh/MNGBq/test.sh -o test.sh

    (download test.sh or you can use the file attached in the post and rename test.sh)

    chmod 755 test.sh
    ( put right to execute to root)

    ./test.sh
    (launch test)

    The source code of test.sh : ( i attach the test.txt )test.txt

    #!/bin/bash
    DWEBIF="http://127.0.0.1:8001/"
    SERVICE=`/usr/bin/wget "http://127.0.0.1/web/subservices" -O- | grep e2servicereference | cut -f8 -d"e" | cut -f1 -d"<" | cut -c2-`
    COMPLET="$DWEBIF+$SERVICE"
    echo .
    echo YOUR CHANNEL IS $COMPLET
    echo .
    rm -f /tmp/test.mp4
    ffmpeg -i $COMPLET -t 10 -s 320x240 /tmp/test.mp4 2>&1 | egrep "speed="


    wait 30 secondes ( it depend of the cpu ) and copy past the last **** result
    And If you can say the source resolution ( sample : DVB T2 1920x1080 )

    HD51 test DVB T2 1920x1080
    /frame= 250 fps=9.5 q=-1.0 Lsize= 553kB time=00:00:10.00 bitrate= 452.6kbits/s dup=41 drop=0 speed=0.379x

    Raspberry 3 (without hardware codec) T2 1920x1080
    frame= 250 fps= 12 q=-1.0 Lsize= 699kB time=00:00:10.00 bitrate= 572.2kbits/s dup=35 drop=0 speed=0.469x

    Odroid XU4 test DVB T2 1920x1080
    frame= 250 fps= 28 q=-1.0 Lsize= 685kB time=00:00:10.00 bitrate= 560.7kbits/s dup=40 drop=0 speed= 1.1x

    Xeon X5482 test DVB T2 1920x1080
    frame= 250 fps= 50 q=-1.0 Lsize= 638kB time=00:00:10.00 bitrate= 522.6kbits/s dup=25 drop=0 speed=1.99x

    Thnak's to test and post result

    •   Alt Advertising

       

  2. #2
    Anfänger
    Registriert seit
    08.07.2018
    Beiträge
    6
    Themenstarter
    Total Downloaded
    0
    Total Downloaded
    0
    ReceiverDankeAktivitäten
    Box 1:
    HD51
     
     
    VU+ Solo4K (while watching TV): BBC1 1920 x 1080
    frame= 190 fps= 10 q=-1.0 Lsize= 467kB time=00:00:07.48 bitrate= 511.6kbits/s dup=54 drop=0 speed=0.394x

    Octagon SF4008 (in standby): BBC1 1920 x 1080
    frame= 211 fps=8.5 q=-1.0 Lsize= 585kB time=00:00:08.32 bitrate= 576.4kbits/s dup=47 drop=0 speed=0.333x

    Quad 4K
    frame= 250 fps= 11 q=-1.0 Lsize= 567kB time=00:00:10.00 bitrate= 464.4kbits/s dup=50 drop=0 speed=0.442x

    UE 4K
    frame= 250 fps= 13 q=-1.0 Lsize= 572kB time=00:00:10.00 bitrate= 468.1kbits/s dup=28 drop=0 speed=0.529x

  3. #3
    Anfänger
    Registriert seit
    08.07.2018
    Beiträge
    6
    Themenstarter
    Total Downloaded
    0
    Total Downloaded
    0
    ReceiverDankeAktivitäten
    Box 1:
    HD51
     
     
    I buy a chinese box s905W at 25 € and install armbian and make the test without hardware codec ( source DVB T2 1920*1080 )

    frame= 250 fps= 17 q=-1.0 Lsize= 467kB time=00:00:10.00 bitrate= 382.5kbits/s dup=45 drop=0 speed=0.663x

    I think the Zgemma h9 can make the same


Stichworte

Lesezeichen

Berechtigungen

  • Neue Themen erstellen: Nein
  • Themen beantworten: Nein
  • Anhänge hochladen: Nein
  • Beiträge bearbeiten: Nein
  •  
Diese Website benutzt Cookies
Wir benutzen Cookies um Sitzungsinformationen zu speichern. Dies erleichtert es uns z.B. Dich an Deine Login zu erinnern, Einstellungen der Webseite zu speichern, Inhalte und Werbung zu personalisieren, Social Media Funktionen anzubieten und unser Datenaufkommen zu analysieren. Wir teilen diese Informationen ebenfalls mit unseren Social Media-, Werbe- und Analysepartnern.
     
Alle Zeitangaben in WEZ +1. Es ist jetzt 08:22 Uhr.
Powered by vBulletin® Version 4.2.5 (Deutsch)
Copyright ©2018 Adduco Digital e.K. und vBulletin Solutions, Inc. Alle Rechte vorbehalten.
Resources saved on this page: MySQL 10,00%
Parts of this site powered by vBulletin Mods & Addons from DragonByte Technologies Ltd. (Details)
vBulletin Skin By: PurevB.com